Covert Operation (2014) DVDRip AAC x264-SSDD

INFORMATION

Código:
http://www.imdb.com/title/tt2379715/

A captured bounty hunter is promised his freedom if he can break several prisoners out of a North Korean military stronghold.

Notes : Should really get back to basics, ive allowed myself to become drawn away from my original goal, which was to make great quality releases at the smallest possible sizes, well i intend to fix that from now on, enjoy :)

General
Complete name                            : Covert Operation 2014 DVDRip AAC x264-SSDD.mp4
Format                                   : MPEG-4
Format profile                           : Base Media
Codec ID                                 : isom
File size                                : 350 MiB
Duration                                 : 1h 28mn
Overall bit rate mode                    : Variable
Overall bit rate                         : 552 Kbps

Video
ID                                       : 1
Format                                   : AVC
Format/Info                              : Advanced Video Codec
Format profile                           : [email protected]
Format settings, CABAC                   : Yes
Format settings, ReFrames                : 3 frames
Codec ID                                 : avc1
Codec ID/Info                            : Advanced Video Coding
Duration                                 : 1h 28mn
Bit rate mode                            : Variable
Bit rate                                 : 514 Kbps
Maximum bit rate                         : 40.0 Mbps
Width                                    : 720 pixels
Height                                   : 304 pixels
Display aspect ratio                     : 2.35:1
Frame rate mode                          : Constant
Frame rate                               : 23.976 fps
Color space                              : YUV
Chroma subsampling                       : 4:2:0
Bit depth                                : 8 bits
Scan type                                : Progressive
Bits/(Pixel*Frame)                       : 0.098
Stream size                              : 325 MiB (93%)
Writing library                          : x264 core 142 r2479 dd79a61

Audio
ID                                       : 2
Format                                   : AAC
Format/Info                              : Advanced Audio Codec
Format profile                           : LC
Codec ID                                 : 40
Duration                                 : 1h 28mn
Bit rate mode                            : Variable
Bit rate                                 : 35.0 Kbps
Maximum bit rate                         : 41.0 Kbps
Channel(s)                               : 2 channels
Channel positions                        : Front: L R
Sampling rate                            : 48.0 KHz
Compression mode                         : Lossy
Stream size                              : 22.2 MiB (6%)
SCREENSHOTS





DOWNLOAD WITH RAPIDGATOR

Código:
Single File

http://rapidgator.net/file/21469c6162ea5ab1668b881db560d06d/Covert.Operation.2014.DVDRip.AAC.x264-SSDD.mp4.html
If you like my post, don't forget to say thanks and help keep the thread alive. Thanks You!