Into The Storm (2014) 720p HDRIP x264 AC3 TiTAN

INFORMATION

Código:
http://www.imdb.com/title/tt2106361/

Source: RUS Itunes

General

Format                                   : Matroska
Format version                           : Version 2
File size                                : 2.13 GiB
Duration                                 : 1h 29mn
Overall bit rate mode                    : Variable
Overall bit rate                         : 3 412 Kbps
Encoded date                             : UTC 2014-10-27 23:10:45

Video
ID                                       : 1
Format                                   : AVC
Format/Info                              : Advanced Video Codec
Format profile                           : [email protected]
Format settings, CABAC                   : Yes
Format settings, ReFrames                : 3 frames
Codec ID                                 : V_MPEG4/ISO/AVC
Duration                                 : 1h 29mn
Bit rate mode                            : Variable
Bit rate                                 : 3 088 Kbps
Maximum bit rate                         : 40.0 Mbps
Width                                    : 1 280 pixels
Height                                   : 718 pixels
Display aspect ratio                     : 16:9
Frame rate mode                          : Constant
Frame rate                               : 23.976 fps
Color space                              : YUV
Chroma subsampling                       : 4:2:0
Bit depth                                : 8 bits
Scan type                                : Progressive
Bits/(Pixel*Frame)                       : 0.140
Stream size                              : 1.92 GiB (91%)
Default                                  : Yes
Forced                                   : No
Color primaries                          : BT.709
Transfer characteristics                 : BT.709
Matrix coefficients                      : BT.709

Audio
ID                                       : 2
Format                                   : AC-3
Format/Info                              : Audio Coding 3
Mode extension                           : CM (complete main)
Format settings, Endianness              : Big
Codec ID                                 : A_AC3
Duration                                 : 1h 29mn
Bit rate mode                            : Constant
Bit rate                                 : 256 Kbps
Channel(s)                               : 2 channels
Channel positions                        : Front: L R
Sampling rate                            : 48.0 KHz
Bit depth                                : 16 bits
Compression mode                         : Lossy
Stream size                              : 163 MiB (8%)
Language                                 : English
Default                                  : Yes
Forced                                   : No
SCREENSHOTS





DOWNLOAD WITH RAPIDGATOR

Código:
http://rapidgator.net/file/fb166c0e4cf0b429bca4d4df24b7db4e/Into_The_Storm_2014_720p_HDRIP_x264_AC3_TiTAN.part1.rar.html
http://rapidgator.net/file/183bac1e6d0e1a472a3b3ecab3390008/Into_The_Storm_2014_720p_HDRIP_x264_AC3_TiTAN.part2.rar.html
http://rapidgator.net/file/23c621909542ac7a933f467a68de74ff/Into_The_Storm_2014_720p_HDRIP_x264_AC3_TiTAN.part3.rar.html

Single File

http://rapidgator.net/file/96b54607230f7827c8940d78d541b5a0/Into_The_Storm_2014_720p_HDRIP_x264_AC3_TiTAN.mkv.html
If you like my post, don't forget to say thanks and help keep the thread alive. Thanks You!