A Walk Among the Tombstones (2014) KORSUB HDRIP XVID AC3 ACAB

INFORMATION

Código:
Format                                   : AVI
Format/Info                              : Audio Video Interleave
File size                                : 1.19 GiB
Duration                                 : 1h 53mn
Overall bit rate                         : 1 494 Kbps

Video
ID                                       : 0
Format                                   : MPEG-4 Visual
Format profile                           : Advanced Simple@L5
Format settings, BVOP                    : 2
Format settings, QPel                    : No
Format settings, GMC                     : No warppoints
Format settings, Matrix                  : Default (H.263)
Muxing mode                              : Packed bitstream
Codec ID                                 : XVID
Codec ID/Hint                            : XviD
Duration                                 : 1h 53mn
Bit rate                                 : 1 293 Kbps
Width                                    : 720 pixels
Height                                   : 304 pixels
Display aspect ratio                     : 2.35:1
Frame rate                               : 29.970 fps
Color space                              : YUV
Chroma subsampling                       : 4:2:0
Bit depth                                : 8 bits
Scan type                                : Progressive
Compression mode                         : Lossy
Bits/(Pixel*Frame)                       : 0.197
Stream size                              : 1.03 GiB (87%)
Writing library                          : XviD 65

Audio
ID                                       : 1
Format                                   : AC-3
Format/Info                              : Audio Coding 3
Mode extension                           : CM (complete main)
Format settings, Endianness              : Big
Codec ID                                 : 2000
Duration                                 : 1h 53mn
Bit rate mode                            : Constant
Bit rate                                 : 192 Kbps
Channel(s)                               : 2 channels
Channel positions                        : Front: L R
Sampling rate                            : 48.0 KHz
Bit depth                                : 16 bits
Compression mode                         : Lossy
Stream size                              : 156 MiB (13%)
Alignment                                : Aligned on interleaves
Interleave, duration                     : 64 ms (1.92 video frames)
Interleave, preload duration             : 192 ms
Title                                    : English

http://www.imdb.com/title/tt0365907/
SCREENSHOTS





DOWNLOAD WITH RAPIDGATOR

Código:
http://rapidgator.net/file/121ac1472bd9bad6620736a77be80265/A_Walk_Among_the_Tombstones_2014_KORSUB_HDRIP_XVID_AC3_ACAB.part1.rar.html
http://rapidgator.net/file/c2476634787bf58f720b69515512b33c/A_Walk_Among_the_Tombstones_2014_KORSUB_HDRIP_XVID_AC3_ACAB.part2.rar.html

Single File

http://rapidgator.net/file/f5e4e6991dea1a13cf05a7c11e98a961/A_Walk_Among_the_Tombstones_2014_KORSUB_HDRIP_XVID_AC3_ACAB.avi.html
If you like my post, don't forget to say thanks and help keep the thread alive. Thanks You!