Código:
Perfect.Sisters.2014.BRRip.XviD.AC3-RARBG

http://www.imdb.com/title/tt2027231/


Format                                   : AVI
Format/Info                              : Audio Video Interleave
File size                                : 1.39 GiB
Duration                                 : 1h 36mn
Overall bit rate                         : 2 057 Kbps
Movie name                               : RARBG.COM - Perfect.Sisters.2014.BRRip.XviD.AC3-RARBG
Writing library                          : VirtualDub build 35491/release
Comment                                  : RARBG.COM - Perfect.Sisters.2014.BRRip.XviD.AC3-RARBG

Video
ID                                       : 0
Format                                   : MPEG-4 Visual
Format profile                           : Simple@L5
Format settings, BVOP                    : No
Format settings, QPel                    : No
Format settings, GMC                     : No warppoints
Format settings, Matrix                  : Default (H.263)
Codec ID                                 : XVID
Codec ID/Hint                            : XviD
Duration                                 : 1h 36mn
Bit rate                                 : 1 600 Kbps
Width                                    : 720 pixels
Height                                   : 400 pixels
Display aspect ratio                     : 16:9
Frame rate                               : 25.000 fps
Color space                              : YUV
Chroma subsampling                       : 4:2:0
Bit depth                                : 8 bits
Scan type                                : Progressive
Compression mode                         : Lossy
Bits/(Pixel*Frame)                       : 0.222
Stream size                              : 1.08 GiB (78%)
Writing library                          : Lavc56.1.100

Audio
ID                                       : 1
Format                                   : AC-3
Format/Info                              : Audio Coding 3
Mode extension                           : CM (complete main)
Format settings, Endianness              : Big
Codec ID                                 : 2000
Duration                                 : 1h 36mn
Bit rate mode                            : Constant
Bit rate                                 : 448 Kbps
Channel(s)                               : 6 channels
Channel positions                        : Front: L C R, Side: L R, LFE
Sampling rate                            : 48.0 KHz
Bit depth                                : 16 bits
Compression mode                         : Lossy
Stream size                              : 310 MiB (22%)
Alignment                                : Aligned on interleaves
Interleave, duration                     : 40 ms (1.00 video frame)
Interleave, preload duration             : 512 ms




SINGLE LINKS

Código:
https://www.secureupload.eu/uvbg7n77nlaq/Perfect.Sisters.2014.BRRip.XviD.AC3-RARBG.avi
Código:
http://rapidgator.net/file/2192bfa7f52ead65d38bf4dc01070336/Perfect.Sisters.2014.BRRip.XviD.AC3-RARBG.avi.html
Código:
http://uploaded.net/file/ucjrho8z/Perfect.Sisters.2014.BRRip.XviD.AC3-RARBG.avi