[Sólo los usuarios registrados pueden ver los links. ]



Título original
Blended
Año
2014
Duración
117 min.
País
Estados Unidos Estados Unidos
Director
Frank Coraci
Guión
Ivan Menchell, Clare Sera
Música
Rupert Gregson-Williams
Fotografía
Julio Macat
Reparto
Adam Sandler, Drew Barrymore, Wendi McLendon-Covey, Terry Crews, Bella Thorne, Joel McHale, Lauren Lapkus, Kevin Nealon, Alyvia Alyn Lind, Anna Colwell
Productora
Warner Brothers / Happy Madison Productions / Karz Entertainment
Género
Romance. Comedia | Comedia romántica. África
Web oficial
[Sólo los usuarios registrados pueden ver los links. ]
Sinopsis
Después de una desastrosa cita a ciegas, los padres solteros Lauren (Drew Barrymore) y Jim (Adam Sandler) se muestran de acuerdo en una sola cosa: no desean volver a verse nunca más. Pero cuando contratan, cada uno por su lado, unas fabulosas vacaciones familiares con sus respectivos hijos, ambos se encuentran destinados sin remedio a compartir durante una semana una suite en un lujoso resort resort de recreo familiar en África dedicado a los safaris.
Spoiler: 

General

Format : AVI
Format/Info : Audio Video Interleave
File size : 1.90 GiB
Duration : 1h 57mn
Overall bit rate : 2 319 Kbps
Writing application : VirtualDubMod 1.5.10.2 (build 2542/release)
Writing library : VirtualDubMod build 2542/release

Video
ID : 0
Format : MPEG-4 Visual
Format profile : Advanced Simple@L5
Format settings, BVOP : 2
Format settings, QPel : No
Format settings, GMC : No warppoints
Format settings, Matrix : Default (H.263)
Codec ID : XVID
Codec ID/Hint : XviD
Duration : 1h 57mn
Bit rate : 1 989 Kbps
Width : 720 pixels
Height : 384 pixels
Display aspect ratio : 1.875
Frame rate : 23.976 fps
Color space : YUV
Chroma subsampling : 4:2:0
Bit depth : 8 bits
Scan type : Progressive
Compression mode : Lossy
Bits/(Pixel*Frame) : 0.300
Stream size : 1.63 GiB (86%)
Writing library : XviD 1.2.1 (UTC 2008-12-04)

Audio
ID : 1
Format : MPEG Audio
Format version : Version 1
Format profile : Layer 3
Mode : Joint stereo
Mode extension : MS Stereo
Codec ID : 55
Codec ID/Hint : MP3
Duration : 1h 57mn
Bit rate mode : Constant
Bit rate : 320 Kbps
Channel(s) : 2 channels
Sampling rate : 48.0 KHz
Compression mode : Lossy
Stream size : 268 MiB (14%)
Alignment : Aligned on interleaves
Interleave, duration : 42 ms (1.00 video frame)
Interleave, preload duration : 504 ms
Writing library : LAME3.99r
Encoding settings : -m j -V 4 -q 3 -lowpass 20.5









1 LINK


Código:
http://turbobit.net/s3xfx5gb8udb.html

Código:
https://www.secureupload.eu/x14sw8ybpnje/JuntosRevuelt0s.BRLine.mh20.avi

Código:
http://rapidgator.net/file/3e453f6bf486459ab7dcaebba57de7e6/JuntosRevuelt0s.BRLine.mh20.avi.html

Código:
http://files2share.ch/r3v9qo56yfqv/JuntosRevuelt0s.BRLine.mh20.avi

Código:
-


*SERVIDORES FREE + SERVIDORES DE EXCELENTE VELOCIDAD*



ALTAMENTE RECOMENDABLE EXCELENTE VELOCIDAD!
Código:
http://www.uploadable.ch/file/f9QK3MK8dDJU
http://www.uploadable.ch/file/wJuNHQWwxWeb
http://www.uploadable.ch/file/8AtVKRhZVb7z
http://www.uploadable.ch/file/26jKZvjb7T7b
http://www.uploadable.ch/file/Q2CwF59JEMvp

Código:
http://filestorm.to/hddfc81qk92p.html
http://filestorm.to/5s7pdrt1bya4.html
http://filestorm.to/cy7yu42pwe69.html
http://filestorm.to/rjuxcq4l3p6a.html
http://filestorm.to/fxait8ay6tut.html

Código:
https://www.inclouddrive.com/file/ZHGcQr77jnhZqhq3_Gjpgg/JuntosRevuelt0s.BRLine.mh20.part2.rar
https://www.inclouddrive.com/file/EJjJnWynAZ4V3E9xc14sUw/JuntosRevuelt0s.BRLine.mh20.part1.rar
https://www.inclouddrive.com/file/3QsaSzOb1LDPlFee-vfdeg/JuntosRevuelt0s.BRLine.mh20.part3.rar
https://www.inclouddrive.com/file/RUZVVxCHXCsfBgXyRuW9oQ/JuntosRevuelt0s.BRLine.mh20.part4.rar

Código:
http://4upfiles.com/34vrrwvhag7k
http://4upfiles.com/wxk7dhsp86ox
http://4upfiles.com/gcd08z2ocelo
http://4upfiles.com/iq86p89wqae3
http://4upfiles.com/m68evfaxeyrj

Código:
http://ul.to/skygdewd
http://ul.to/wddxublp
http://ul.to/i1er756n
http://ul.to/24tstd5m
http://ul.to/wwg2re9d

Descarga a tope de tu línea, Como Premium
MIXTO c/1 Link Servidor Alternativo
Código:
http://uptobox.com/r2nz9up8koy2
http://uptobox.com/wmohwq26fyy9
http://uptobox.com/zj6dq2o6e12n
http://uptobox.com/uhcn3x662c1x
https://www.inclouddrive.com/file/EJjJnWynAZ4V3E9xc14sUw/JuntosRevuelt0s.BRLine.mh20.part1.rar
o
http://filestorm.to/hddfc81qk92p.html
o
http://www.uploadable.ch/file/f9QK3MK8dDJU