The Expendables 3 (2014) DVDSCR x264 AC3-TOP-SHOTTA

INFORMATION

Código:
Source: charlesfire22-TPB
IMDb: http://www.imdb.com/title/tt2333784/

Note: Fixed this how i thought it should look, adjusted whitebalance, colors, HSL, gamma, contrast, sharpen.

Barney and his team, known as "The Expendables", come into conflict with ruthless arms dealer Conrad Stonebanks, the Expendables' co-founder, who is determined to destroy the team.

General
Complete name                            : The Expendables 3 2014 DVDSCR x264 AC3-TOP-SHOTTA.mkv
Format                                   : Matroska
Format version                           : Version 2
File size                                : 782 MiB
Duration                                 : 2h 6mn
Overall bit rate mode                    : Variable
Overall bit rate                         : 866 Kbps
Encoded date                             : UTC 2014-07-25 12:29:54
Writing application                      : mkvmerge v7.0.0 ('Where We Going') 32bit built on Jun  9 2014 15:08:34
Writing library                          : libebml v1.3.0 + libmatroska v1.4.1

Video
ID                                       : 1
Format                                   : AVC
Format/Info                              : Advanced Video Codec
Format profile                           : [email protected]
Format settings, CABAC                   : Yes
Format settings, ReFrames                : 2 frames
Codec ID                                 : V_MPEG4/ISO/AVC
Duration                                 : 2h 6mn
Bit rate mode                            : Variable
Bit rate                                 : 656 Kbps
Maximum bit rate                         : 768 Kbps
Width                                    : 720 pixels
Height                                   : 304 pixels
Display aspect ratio                     : 2.35:1
Frame rate mode                          : Constant
Frame rate                               : 23.976 fps
Color space                              : YUV
Chroma subsampling                       : 4:2:0
Bit depth                                : 8 bits
Scan type                                : Progressive
Bits/(Pixel*Frame)                       : 0.125
Stream size                              : 593 MiB (76%)
Language                                 : English
Default                                  : Yes
Forced                                   : No

Audio
ID                                       : 2
Format                                   : AC-3
Format/Info                              : Audio Coding 3
Mode extension                           : CM (complete main)
Format settings, Endianness              : Big
Codec ID                                 : A_AC3
Duration                                 : 2h 6mn
Bit rate mode                            : Constant
Bit rate                                 : 192 Kbps
Channel(s)                               : 2 channels
Channel positions                        : Front: L R
Sampling rate                            : 44.1 KHz
Bit depth                                : 16 bits
Compression mode                         : Lossy
Stream size                              : 173 MiB (22%)
Language                                 : English
Default                                  : Yes
Forced                                   : No
SCREENSHOTS





DOWNLOAD WITH RAPIDGATOR

Código:
Single File

http://rapidgator.net/file/13bbe75aa436b8daee03c37591e2abff/The_Expendables_3_2014_DVDSCR_x264_AC3-TOP-SHOTTA.mkv.html

If you like my post, don't forget to say thanks and help keep the thread alive. Thanks You!