Título original
The Girl Next Door
Año
2004
Duración
108 min.
País
Estados Unidos Estados Unidos
Director
Luke Greenfield
Guión
David T. Wagner, Brent Goldberg, Stuart Blumberg
Música
Paul Haslinger
Fotografía
Jamie Anderson
Reparto
Emile Hirsch, Elisha Cuthbert, Nicholas Downs, Timothy Olyphant, James Remar, Chris Marquette, Paul Dano, Timothy Bottoms, Donna Bullock, Brian Kolodziej
Productora
20th Century Fox
Género
Comedia | Adolescencia. Comedia juvenil
Sinopsis
Matthew, un ambicioso joven de un instituto con aspiraciones a ser político en el futuro, se enamora de la chica de sus sueños: la bella y joven vecina de la puerta de al lado. Ambos comienzan un idílico romance, pero un sorprendente descubrimiento pondrá a prueba su relación: ella es un famosa actriz porno. (FILMAFFINITY)



Spoiler: 

General

Format : Matroska
File size : 5.56 GiB
Duration : 1h 49mn
Overall bit rate : 7 271 Kbps
Movie name : The.Gril.Next.Door.- 720p. By Janko
Encoded date : UTC 2014-02-11 00:20:03
Writing application : mkvmerge v5.0.1 ('Es ist Sommer') built on Oct 9 2011 11:55:43
Writing library : libebml v1.2.2 + libmatroska v1.3.0

Video
ID : 1
Format : AVC
Format/Info : Advanced Video Codec
Format profile : [email protected]
Format settings, CABAC : Yes
Format settings, ReFrames : 4 frames
Muxing mode : Header stripping
Codec ID : V_MPEG4/ISO/AVC
Duration : 1h 49mn
Bit rate : 5 320 Kbps
Width : 1 280 pixels
Height : 688 pixels
Display aspect ratio : 1.860
Frame rate : 23.976 fps
Color space : YUV
Chroma subsampling : 4:2:0
Bit depth : 8 bits
Scan type : Progressive
Bits/(Pixel*Frame) : 0.252
Stream size : 3.95 GiB (71%)
Title : The.Gril.Next.Door.- 720p. By Janko
Writing library : x264 core 80 r1376M 3feaec2
Encoding settings : cabac=1 / ref=4 / deblock=1:0:0 / analyse=0x3:0x133 / me=hex / subme=6 / psy=1 / psy_rd=1.0:0.0 / mixed_ref=1 / me_range=16 / chroma_me=1 / trellis=0 / 8x8dct=1 / cqm=0 / deadzone=21,11 / fast_pskip=1 / chroma_qp_offset=-2 / threads=6 / sliced_threads=0 / nr=0 / decimate=1 / mbaff=0 / constrained_intra=0 / bframes=2 / b_pyramid=0 / b_adapt=1 / b_bias=0 / direct=2 / wpredb=0 / wpredp=2 / keyint=250 / keyint_min=25 / scenecut=40 / rc_lookahead=40 / rc=2pass / mbtree=1 / bitrate=5320 / ratetol=1.0 / qcomp=0.60 / qpmin=10 / qpmax=51 / qpstep=4 / cplxblur=20.0 / qblur=0.5 / ip_ratio=1.40 / aq=1:1.00
Language : Spanish

Audio #1
ID : 2
Format : AC-3
Format/Info : Audio Coding 3
Mode extension : CM (complete main)
Muxing mode : Header stripping
Codec ID : A_AC3
Duration : 1h 49mn
Bit rate mode : Constant
Bit rate : 448 Kbps
Channel(s) : 6 channels
Channel positions : Front: L C R, Side: L R, LFE
Sampling rate : 48.0 KHz
Bit depth : 16 bits
Compression mode : Lossy
Stream size : 351 MiB (6%)
Language : Spanish

Audio #2
ID : 3
Format : DTS
Format/Info : Digital Theater Systems
Muxing mode : Header stripping
Codec ID : A_DTS
Duration : 1h 49mn
Bit rate mode : Constant
Bit rate : 1 510 Kbps
Channel(s) : 6 channels
Channel positions : Front: L C R, Side: L R, LFE
Sampling rate : 48.0 KHz
Bit depth : 24 bits
Compression mode : Lossy
Stream size : 1.15 GiB (21%)
Title : English
Language : English

Text
ID : 4
Format : UTF-8
Codec ID : S_TEXT/UTF8
Codec ID/Info : UTF-8 Plain Text
Language : Spanish




*** LINKS INTERCAMBIABLES - DESCARGAS A TOPE ***

(EX PUTLOCKER)

Código:
http://q.gs/5cHhT
Descomprimir con Winrar